<?xml version="1.0" standalone="no"?>
<!DOCTYPE svg PUBLIC "-//W3C//DTD SVG 1.1//EN" "http://www.w3.org/Graphics/SVG/1.1/DTD/svg11.dtd">
<svg xmlns="http://www.w3.org/2000/svg">
<metadata>This SVG font generated by Fontastic.me</metadata>
<defs>
<font id="dripicons" horiz-adv-x="512">
  <font-face font-family="dripicons" font-weight="500" font-stretch="normal" units-per-em="512" panose-1="2 0 6 3 0 0 0 0 0 0" ascent="480" descent="-32" bbox="-1 -35 515 481" underline-thickness="50" underline-position="-100" unicode-range="U+E000-E094"/>
    <missing-glyph/>
    <glyph glyph-name="glyph0" unicode="&#57344;" d="M451 426c14 0 24 -10 24 -24s-10 -25 -24 -25h-392c-14 0 -25 11 -25 25s11 24 25 24h392zM368 259h-226c-14 0 -24 11 -24 25s10 24 24 24h226c14 0 24 -10 24 -24s-10 -25 -24 -25zM84 166c0 14 11 25 25 25h292c14 0 24 -11 24 -25s-10 -24 -24 -24h-292 c-14 0 -25 10 -25 24zM440 73c14 0 25 -10 25 -24s-11 -25 -25 -25h-371c-14 0 -24 11 -24 25s10 24 24 24h371z"/>
    <glyph glyph-name="glyph1" unicode="&#57345;" d="M59 377c-14 0 -25 11 -25 25s11 24 25 24h392c14 0 24 -10 24 -24s-10 -25 -24 -25h-392zM451 308c14 0 24 -10 24 -24s-10 -25 -24 -25h-392c-14 0 -25 11 -25 25s11 24 25 24h392zM451 191c14 0 24 -11 24 -25s-10 -24 -24 -24h-392c-14 0 -25 10 -25 24s11 25 25 25 h392zM255 73c14 0 24 -10 24 -24s-10 -25 -24 -25h-195c-14 0 -24 11 -24 25s10 24 24 24h195z"/>
    <glyph glyph-name="glyph2" unicode="&#57346;" d="M451 426c14 0 24 -10 24 -24s-10 -25 -24 -25h-392c-14 0 -25 11 -25 25s11 24 25 24h392zM59 259c-14 0 -25 11 -25 25s11 24 25 24h225c14 0 25 -10 25 -24s-11 -25 -25 -25h-225zM59 142c-14 0 -25 10 -25 24s11 25 25 25h292c14 0 24 -11 24 -25s-10 -24 -24 -24 h-292zM431 73c14 0 25 -10 25 -24s-11 -25 -25 -25h-371c-14 0 -24 11 -24 25s10 24 24 24h371z"/>
    <glyph glyph-name="glyph3" unicode="&#57347;" d="M451 377h-392c-14 0 -25 11 -25 25s11 24 25 24h392c14 0 24 -10 24 -24s-10 -25 -24 -25zM451 308c14 0 24 -10 24 -24s-10 -25 -24 -25h-225c-14 0 -25 11 -25 25s11 24 25 24h225zM451 191c14 0 24 -11 24 -25s-10 -24 -24 -24h-292c-14 0 -24 10 -24 24s10 25 24 25 h292zM449 73c14 0 25 -10 25 -24s-11 -25 -25 -25h-371c-14 0 -24 11 -24 25s10 24 24 24h371z"/>
    <glyph glyph-name="glyph4" unicode="&#57348;" d="M68 196c0 13 11 22 22 22h74v201c0 12 10 22 22 22h138c12 0 22 -10 22 -22v-201h74c18 0 29 -23 15 -37l-165 -165c-9 -9 -23 -8 -31 0l-165 165c-4 4 -6 9 -6 15zM208 397v-201c0 -12 -10 -22 -22 -22h-44l113 -112l112 112h-43c-12 0 -22 10 -22 22v201h-94z"/>
    <glyph glyph-name="glyph5" unicode="&#57349;" d="M248 60c0 -11 -9 -22 -22 -22c-6 0 -12 3 -16 7l-164 164c-8 8 -10 22 -1 31l165 166c14 14 38 2 38 -16v-74h201c12 0 22 -10 22 -22v-138c0 -12 -10 -22 -22 -22h-201v-74zM92 225l112 -112v43c0 12 10 22 22 22h201v94h-201c-12 0 -22 10 -22 22v44z"/>
    <glyph glyph-name="glyph6" unicode="&#57350;" d="M230 407c0 14 11 24 25 24s24 -10 24 -24v-304l92 91c10 10 24 10 34 0c5 -5 8 -11 8 -17s-3 -13 -8 -18l-133 -133c-5 -5 -10 -7 -17 -7s-12 2 -17 7l-133 133c-10 10 -10 25 0 35s24 10 34 0l91 -91v304z"/>
    <glyph glyph-name="glyph7" unicode="&#57351;" d="M284 38c-13 0 -22 11 -22 22v74h-201c-12 0 -22 10 -22 22v138c0 12 10 22 22 22h201v74c0 18 23 30 37 16l165 -166c9 -9 8 -23 0 -31c-7 -7 -165 -164 -165 -164c-4 -4 -9 -7 -15 -7zM83 178h201c12 0 22 -10 22 -22v-43l112 112l-112 113v-44c0 -12 -10 -22 -22 -22 h-201v-94z"/>
    <glyph glyph-name="glyph8" unicode="&#57352;" d="M436 250c14 0 25 -11 25 -25s-11 -24 -25 -24h-303l91 -92c10 -10 10 -24 0 -34c-5 -5 -11 -7 -17 -7s-13 2 -18 7l-133 133c-5 5 -7 11 -7 17c0 7 2 12 7 17l133 133c10 10 25 10 35 0s10 -24 0 -34l-91 -91h303z"/>
    <glyph glyph-name="glyph9" unicode="&#57353;" d="M279 44c0 -14 -10 -25 -24 -25s-25 11 -25 25v303l-91 -91c-10 -10 -25 -10 -35 0c-5 5 -7 11 -7 17s3 13 8 18l133 133c5 5 10 7 17 7s12 -2 17 -7l133 -133c10 -10 10 -25 0 -35s-24 -10 -34 0l-92 91v-303z"/>
    <glyph glyph-name="glyph10" unicode="&#57360;" d="M442 254c0 -13 -11 -22 -22 -22h-74v-201c0 -12 -10 -22 -22 -22h-138c-12 0 -22 10 -22 22v201h-74c-18 0 -30 24 -16 38l166 165c9 9 23 7 31 -1l164 -164c4 -4 7 -10 7 -16zM302 53v201c0 12 10 22 22 22h43l-112 112l-113 -112h44c12 0 22 -10 22 -22v-201h94z"/>
    <glyph glyph-name="glyph11" unicode="&#57361;" d="M477 289c14 -14 0 -27 0 -27l-226 -227c-36 -36 -77 -54 -115 -54c-10 0 -19 0 -28 3c-38 10 -67 40 -77 79c-13 49 4 102 47 145l238 237c39 39 93 27 124 -4c34 -34 38 -85 2 -121l-240 -240c-64 -64 -140 10 -75 75l155 155c7 7 20 7 27 0s7 -20 0 -27l-155 -155 c-29 -29 -8 -50 21 -21l240 240c21 21 18 47 -2 67c-18 18 -48 26 -70 4l-238 -237c-34 -34 -47 -73 -38 -108c7 -26 26 -45 50 -52c33 -9 72 6 107 41l226 227s13 14 27 0z"/>
    <glyph glyph-name="glyph12" unicode="&#57362;" d="M73 201c-14 0 -24 10 -24 24s10 25 24 25h304l-91 91c-10 10 -10 24 0 34c5 5 11 8 17 8s13 -3 18 -8l133 -133c5 -5 7 -10 7 -17s-2 -12 -7 -17l-133 -133c-10 -10 -25 -10 -35 0s-10 24 0 34l91 92h-304z"/>
    <glyph glyph-name="glyph13" unicode="&#57363;" d="M325 68c-6 0 -13 2 -18 7c-10 10 -10 24 0 34l116 116l-116 116c-10 10 -10 24 0 34s25 10 35 0l133 -133c5 -5 7 -10 7 -17c0 -6 -2 -12 -7 -17l-133 -133c-5 -5 -11 -7 -17 -7zM185 68c-6 0 -12 2 -17 7l-133 133c-5 5 -7 11 -7 17c0 7 2 12 7 17l133 133 c10 10 25 10 35 0s10 -24 0 -34l-116 -116l116 -116c10 -10 10 -24 0 -34c-5 -5 -12 -7 -18 -7z"/>
    <glyph glyph-name="glyph14" unicode="&#57364;" d="M342 350c48 0 83 -39 80 -90c58 -17 81 -66 78 -108c-3 -46 -39 -96 -110 -96c-108 0 -285 1 -287 1c-46 0 -85 35 -92 83c-6 37 10 87 70 113c-8 31 -2 62 15 88c22 33 59 53 99 53s76 -20 102 -56c14 8 29 12 45 12zM460 155c2 30 -17 63 -64 70c-10 1 -19 12 -16 24 c8 33 -7 61 -38 61c-13 0 -26 -6 -36 -16s-26 -6 -32 5c-19 35 -47 55 -79 55c-48 0 -94 -47 -70 -105c5 -13 -4 -24 -13 -27c-44 -13 -67 -42 -62 -76c4 -24 23 -49 53 -49c2 0 180 -1 287 -1c45 0 68 30 70 59zM188 334c10 1 18 -6 19 -16s-6 -18 -16 -19 c-20 -2 -20 -16 -20 -20c1 -10 -7 -19 -18 -19c-9 0 -16 7 -17 16c-2 21 11 54 52 58z"/>
    <glyph glyph-name="glyph15" unicode="&#57365;" d="M188 383c6 0 13 -3 18 -8l133 -133c5 -5 7 -10 7 -17c0 -6 -2 -12 -7 -17l-133 -133c-10 -10 -25 -10 -35 0s-10 24 0 34l116 116l-116 116c-10 10 -10 24 0 34c5 5 11 8 17 8z"/>
    <glyph glyph-name="glyph16" unicode="&#57366;" d="M97 159c0 6 3 12 8 17l133 133c5 5 10 7 17 7c6 0 12 -2 17 -7l133 -133c10 -10 10 -25 0 -35s-24 -10 -34 0l-116 116l-116 -116c-10 -10 -24 -10 -34 0c-5 5 -8 12 -8 18z"/>
    <glyph glyph-name="glyph17" unicode="&#57367;" d="M412 292c0 -6 -2 -13 -7 -18l-133 -133c-5 -5 -10 -7 -17 -7s-12 2 -17 7l-133 133c-10 10 -10 25 0 35s24 10 34 0l116 -116l116 116c10 10 24 10 34 0c5 -5 7 -11 7 -17z"/>
    <glyph glyph-name="glyph18" unicode="&#57368;" d="M321 68c-6 0 -12 2 -17 7l-133 133c-5 5 -7 10 -7 17s2 12 7 17l133 133c10 10 25 10 35 0s10 -24 0 -34l-116 -116l116 -116c10 -10 10 -24 0 -34c-5 -5 -12 -7 -18 -7z"/>
    <glyph glyph-name="glyph19" unicode="&#57369;" d="M255 326c68 0 123 -55 123 -123s-55 -124 -123 -124s-124 56 -124 124s56 123 124 123zM255 123c44 0 80 36 80 80s-36 80 -80 80s-80 -36 -80 -80s36 -80 80 -80zM277 263c17 -8 46 -30 41 -66c-1 -11 -11 -19 -22 -19c-14 0 -23 12 -21 25s-15 20 -15 20 c-11 5 -17 18 -12 29s18 16 29 11zM236 160c0 12 10 21 22 21s22 -9 22 -21s-10 -22 -22 -22s-22 10 -22 22zM480 332c12 0 22 -10 22 -22v-270c0 -12 -10 -22 -22 -22h-451c-12 0 -21 10 -21 22v270c0 12 9 22 21 22h83l23 84c3 9 11 16 21 16h198c10 0 18 -7 21 -16 l23 -84h82zM459 62v227h-78c-10 0 -18 7 -21 16l-23 83h-165l-23 -83c-3 -9 -11 -16 -21 -16h-77v-227h408z"/>
    <glyph glyph-name="glyph20" unicode="&#57376;" d="M176 45c-8 0 -17 4 -23 10l-137 136c-13 13 -13 33 0 46s33 13 46 0l114 -113l272 272c13 13 33 13 46 0s13 -34 0 -47l-295 -294c-6 -6 -15 -10 -23 -10z"/>
    <glyph glyph-name="glyph21" unicode="&#57377;" d="M151 324c-15 0 -27 12 -27 27v69c0 15 12 27 27 27s27 -12 27 -27v-69c0 -15 -12 -27 -27 -27zM359 324c-15 0 -27 12 -27 27v69c0 15 12 27 27 27s27 -12 27 -27v-69c0 -15 -12 -27 -27 -27zM480 407c12 0 22 -9 22 -21v-361c0 -12 -10 -22 -22 -22h-451 c-12 0 -21 10 -21 22v361c0 12 9 21 21 21h51c12 0 21 -9 21 -21s-9 -22 -21 -22h-29v-89h408v89h-29c-12 0 -22 10 -22 22s10 21 22 21h50zM51 47h408v196h-408v-196zM221 364c-12 0 -22 10 -22 22s10 21 22 21h68c12 0 22 -9 22 -21s-10 -22 -22 -22h-68z"/>
    <glyph glyph-name="glyph22" unicode="&#57378;" d="M503 284c9 -9 9 -25 0 -34l-84 -84c-5 -5 -11 -7 -17 -7s-12 2 -17 7l-84 84c-9 9 -9 25 0 34s25 9 34 0l47 -47c-6 87 -79 155 -167 155c-92 0 -167 -75 -167 -167s75 -167 167 -167c34 0 67 10 95 29c11 8 26 5 34 -6s4 -26 -7 -34c-36 -25 -78 -37 -122 -37 c-119 0 -215 96 -215 215s96 216 215 216c112 0 205 -87 215 -196l39 39c9 9 25 9 34 0z"/>
    <glyph glyph-name="glyph23" unicode="&#57379;" d="M120 201c0 -7 -5 -15 -14 -15c-4 0 -8 2 -11 5l-45 51h-36c-8 0 -14 7 -14 15v143c0 8 6 14 14 14h237c8 0 14 -6 14 -14v-60h226c11 0 19 -8 19 -19v-188c0 -11 -8 -20 -19 -20h-46l-60 -70c-4 -4 -10 -7 -15 -7c-11 0 -19 9 -19 19v58h-171c-11 0 -19 9 -19 20v109h-41 v-41zM106 271h55v50c0 11 8 19 19 19h56v45h-207v-114h27c4 0 8 -2 11 -5l25 -28v19c0 8 6 14 14 14zM472 152v150h-273v-150h171c11 0 19 -8 19 -19v-26l32 38c4 4 9 7 15 7h36zM249 239c-8 0 -15 7 -15 15s7 14 15 14h107c8 0 14 -6 14 -14s-6 -15 -14 -15h-107zM421 254 c0 -8 -6 -15 -14 -15s-14 7 -14 15c0 4 1 7 4 10c5 5 15 5 20 0c3 -3 4 -6 4 -10z"/>
    <glyph glyph-name="glyph24" unicode="&#57380;" d="M276 -3c-12 0 -21 9 -22 20l-19 188l-188 19c-22 2 -27 33 -7 42l412 185c18 8 37 -11 29 -29l-185 -412c-4 -8 -12 -13 -20 -13zM132 259l125 -12c10 -1 19 -10 20 -20l12 -125l128 286z"/>
    <glyph glyph-name="glyph25" unicode="&#57381;" d="M301 225l114 -114c13 -13 13 -33 0 -46c-6 -6 -15 -10 -23 -10s-17 4 -23 10l-114 114l-114 -114c-6 -6 -15 -10 -23 -10s-17 4 -23 10c-13 13 -13 33 0 46l114 114l-114 114c-13 13 -13 33 0 46s33 13 46 0l114 -114l114 114c13 13 33 13 46 0s13 -33 0 -46z"/>
    <glyph glyph-name="glyph26" unicode="&#57382;" d="M30 24c-24 0 -36 26 -25 45l68 113c11 18 37 19 50 2l28 -37l61 102c11 18 36 19 49 2l53 -69l141 230c9 14 27 19 41 10s19 -27 10 -41l-164 -268c-11 -17 -36 -19 -49 -2l-53 69l-61 -103c-11 -18 -37 -19 -50 -2l-28 38l-45 -75c-6 -9 -16 -14 -26 -14z"/>
    <glyph glyph-name="glyph27" unicode="&#57383;" d="M509 278c0 -1 6 -21 6 -55s-6 -54 -6 -55c-2 -8 -8 -13 -16 -14l-42 -6c-2 -6 -1 -3 -4 -9l26 -34c5 -6 5 -15 1 -22c0 -1 -11 -18 -35 -42s-41 -35 -42 -35c-7 -4 -16 -4 -22 1l-34 26c-6 -3 -3 -2 -9 -4l-6 -42c-1 -8 -6 -14 -14 -16c-1 0 -21 -6 -55 -6s-54 6 -55 6 c-8 2 -13 8 -14 16l-5 42c-6 2 -4 1 -10 4l-34 -26c-6 -5 -15 -5 -22 -1c-1 0 -18 11 -42 35s-35 41 -35 42c-4 7 -4 16 1 22l26 34c-3 6 -2 3 -4 9l-42 6c-8 1 -14 6 -16 14c0 1 -6 21 -6 55s6 54 6 55c2 8 8 13 16 14l42 5c2 6 1 4 4 10l-26 34c-5 6 -5 15 -1 22 c0 1 11 18 35 42s41 35 42 35c7 4 16 4 22 -1l34 -26c6 3 3 2 9 4l6 42c1 8 6 14 14 16c1 0 21 6 55 6s54 -6 55 -6c8 -2 13 -8 14 -16l6 -42c6 -2 3 -1 9 -4l34 26c6 5 15 5 22 1c1 0 18 -11 42 -35s35 -41 35 -42c4 -7 4 -16 -1 -22l-26 -34c3 -6 2 -3 4 -9l42 -6 c8 -1 14 -6 16 -14zM474 190c1 8 2 19 2 33s-1 25 -2 33l-40 5c-7 1 -13 6 -15 13c-6 18 -4 10 -12 27c-3 7 -2 14 2 20l25 32c-5 6 -12 15 -22 25s-18 16 -24 21l-32 -24c-6 -4 -14 -5 -21 -2c-15 7 -10 5 -27 11c-7 2 -12 9 -13 16l-5 40c-8 1 -19 2 -33 2s-25 -1 -33 -2 l-5 -40c-1 -7 -6 -14 -13 -16c-17 -6 -12 -3 -27 -11c-7 -3 -14 -2 -20 2l-32 24c-6 -5 -15 -11 -25 -21s-16 -19 -21 -25l24 -32c4 -6 5 -13 2 -20c-3 -6 -6 -13 -6 -13c0 -1 -3 -7 -5 -14s-9 -12 -16 -13l-40 -5c-1 -8 -2 -19 -2 -33s1 -25 2 -33l40 -5c7 -1 14 -6 16 -13 c6 -17 3 -12 11 -27c3 -7 2 -15 -2 -21l-24 -32c5 -6 11 -14 21 -24s19 -17 25 -22l32 25c6 4 13 5 20 2c15 -7 10 -5 27 -11c7 -2 12 -9 13 -16l5 -40c8 -1 19 -2 33 -2s25 1 33 2l5 40c1 7 6 14 13 16c18 6 10 3 27 11c7 3 15 2 21 -2l32 -25c6 5 14 12 24 22s17 19 22 25 l-25 31c-4 6 -5 14 -2 21c7 15 5 10 11 27c2 7 9 12 16 13zM257 346c68 0 123 -55 123 -123s-55 -123 -123 -123s-123 55 -123 123s55 123 123 123zM257 139c47 0 84 37 84 84s-37 84 -84 84s-84 -37 -84 -84s37 -84 84 -84z"/>
    <glyph glyph-name="glyph28" unicode="&#57384;" d="M398 469c21 0 38 -17 38 -38v-412c0 -21 -17 -38 -38 -38s-38 17 -38 38v412c0 21 17 38 38 38zM255 333c21 0 38 -17 38 -38v-276c0 -21 -17 -38 -38 -38s-38 17 -38 38v276c0 21 17 38 38 38zM112 197c21 0 38 -17 38 -38v-140c0 -21 -17 -38 -38 -38s-38 17 -38 38 v140c0 21 17 38 38 38z"/>
    <glyph glyph-name="glyph29" unicode="&#57385;" d="M384 89c11 0 19 -8 19 -19v-38c0 -11 -8 -19 -19 -19h-362c-11 0 -19 8 -19 19v270c0 11 8 19 19 19h70c11 0 19 -8 19 -19s-8 -19 -19 -19h-51v-232h324v19c0 11 8 19 19 19zM506 292c4 -4 5 -8 5 -13s-1 -10 -5 -14l-140 -140c-12 -12 -32 -2 -32 14v64h-16 c-53 0 -148 -10 -184 -74c-3 -6 -9 -9 -16 -9c-11 0 -19 9 -19 19c0 3 0 86 63 149c41 41 99 65 172 68v62c0 16 19 27 32 14zM372 185l93 94l-93 93v-35c0 -11 -8 -19 -19 -19c-71 0 -127 -20 -164 -57c-20 -20 -32 -42 -40 -62c53 35 124 42 169 42c22 0 36 -2 37 -2 c10 -1 17 -9 17 -19v-35z"/>
    <glyph glyph-name="glyph30" unicode="&#57392;" d="M307 9c-17 0 -31 14 -30 31c3 73 -14 129 -52 164c-60 56 -151 46 -152 46c-16 -2 -31 10 -33 26s10 31 26 33c5 1 120 12 200 -62c51 -48 75 -117 71 -209c-1 -16 -14 -29 -30 -29zM43 80c0 39 31 71 70 71s71 -32 71 -71c0 -38 -32 -70 -71 -70c-38 0 -70 31 -70 70z M439 9c-17 0 -31 14 -30 31c5 119 -24 208 -86 266c-98 91 -249 74 -250 74c-16 -2 -31 10 -33 26s10 32 26 34c7 1 180 20 298 -90c76 -70 111 -175 105 -312c-1 -16 -14 -29 -30 -29z"/>
    <glyph glyph-name="glyph31" unicode="&#57393;" d="M467 27h-424c-12 0 -22 10 -22 22v353c0 12 10 21 22 21h160c8 0 15 -3 19 -10l28 -47h217c12 0 22 -10 22 -22v-295c0 -12 -10 -22 -22 -22zM65 70h380v252h-207c-8 0 -15 4 -19 11l-28 47h-126v-310z"/>
    <glyph glyph-name="glyph32" unicode="&#57394;" d="M34 38c-13 0 -22 11 -22 22c0 4 0 102 74 176c49 49 117 75 203 79v75c0 18 23 30 37 16l165 -166c9 -9 8 -23 0 -31c-7 -7 -165 -164 -165 -164c-14 -14 -37 -3 -37 15v76h-19c-63 0 -174 -11 -217 -87c-4 -7 -11 -11 -19 -11zM270 180c26 0 42 -2 43 -2 c11 -1 20 -11 20 -22v-43l112 112l-112 113v-44c0 -12 -10 -22 -22 -22c-159 0 -219 -81 -242 -143c62 43 147 51 201 51z"/>
    <glyph glyph-name="glyph33" unicode="&#57395;" d="M490 278c12 0 22 -11 19 -24l-46 -193c-2 -9 -11 -15 -20 -15h-382c-9 0 -17 7 -19 16l-42 192c-3 13 8 24 20 24h22v106c0 11 8 20 19 20h145c7 0 12 -4 16 -10l26 -42h195c11 0 20 -9 20 -20v-54h27zM81 365v-87h343v35h-187c-7 0 -13 3 -17 9l-26 43h-113zM428 86 l37 153h-421l33 -153h351z"/>
    <glyph glyph-name="glyph34" unicode="&#57396;" d="M464 183c15 0 27 -12 27 -27v-147c0 -15 -12 -27 -27 -27h-418c-15 0 -28 12 -28 27v147c0 15 13 27 28 27s27 -12 27 -27v-119h364v119c0 15 12 27 27 27zM236 122l-110 110c-11 11 -11 27 0 38s27 11 38 0l64 -63v234c0 15 12 27 27 27s27 -12 27 -27v-234l63 63 c11 11 28 11 39 0s11 -27 0 -38l-110 -110c-5 -5 -12 -8 -19 -8s-14 3 -19 8z"/>
    <glyph glyph-name="glyph35" unicode="&#57397;" d="M433 336c4 -4 7 -9 7 -15v-312c0 -12 -10 -21 -22 -21h-326c-12 0 -22 9 -22 21v432c0 12 10 22 22 22h206c6 0 11 -3 15 -7zM396 312l-107 107h-2v-107h109zM114 31h282v237h-131c-12 0 -22 10 -22 22v129h-129v-388z"/>
    <glyph glyph-name="glyph36" unicode="&#57398;" d="M480 435c5 -5 5 -14 0 -19l-240 -240c-1 -1 -2 -2 -4 -3l-68 -27c-2 -1 -3 -1 -5 -1c-9 0 -16 10 -12 19l26 67c1 2 2 4 3 5l240 240c3 3 6 4 10 4s6 -1 9 -4zM223 197l229 228l-22 22l-229 -228l-14 -36zM373 242c12 0 21 -10 21 -22v-228c0 -12 -9 -22 -21 -22h-326 c-12 0 -21 10 -21 22v430c0 12 9 22 21 22h238c12 0 22 -10 22 -22s-10 -21 -22 -21h-216v-388h282v207c0 12 10 22 22 22z"/>
    <glyph glyph-name="glyph37" unicode="&#57399;" d="M418 463c12 0 22 -10 22 -22v-432c0 -12 -10 -21 -22 -21h-326c-12 0 -22 9 -22 21v432c0 12 10 22 22 22h326zM396 31v388h-282v-388h282zM184 153c-11 0 -19 8 -19 19s8 19 19 19h64c11 0 19 -8 19 -19s-8 -19 -19 -19h-64zM187 239c-11 0 -19 8 -19 19s8 19 19 19h129 c11 0 20 -8 20 -19s-9 -19 -20 -19h-129zM187 325c-11 0 -19 8 -19 19s8 19 19 19h129c11 0 20 -8 20 -19s-9 -19 -20 -19h-129zM316 153c-10 0 -19 9 -19 19c0 5 1 10 5 14c7 7 20 7 27 0c4 -4 6 -9 6 -14c0 -10 -9 -19 -19 -19z"/>
    <glyph glyph-name="glyph38" unicode="&#57400;" d="M292 293c0 15 13 28 28 28s28 -13 28 -28s-13 -28 -28 -28s-28 13 -28 28zM349 249c0 15 13 28 28 28s28 -13 28 -28s-13 -27 -28 -27s-28 12 -28 27zM187 286c7 0 12 -5 12 -12s-5 -13 -12 -13h-17v-16c0 -7 -5 -13 -12 -13s-13 6 -13 13v16h-16c-7 0 -13 6 -13 13 s6 12 13 12h16v17c0 7 6 12 13 12s12 -5 12 -12v-17h17zM402 394c30 0 64 -41 52 -79c13 -30 56 -137 56 -205c0 -31 -23 -54 -53 -54c-22 0 -44 12 -63 34c-15 17 -41 49 -54 66c-26 -6 -53 -9 -82 -9c-39 0 -71 5 -88 9c-13 -17 -39 -49 -54 -66c-19 -22 -41 -34 -63 -34 c-30 0 -53 24 -53 54c0 67 43 175 56 205c-12 38 22 77 50 79c14 1 34 -8 46 -14c15 3 51 8 100 8c35 0 72 -2 106 -8c11 6 30 14 44 14zM40 110c0 -8 5 -13 13 -13c10 0 22 7 33 19c20 23 60 74 60 75c5 7 14 9 22 7c0 0 39 -11 90 -11c30 0 58 3 84 11c2 1 4 1 6 1 c6 0 12 -3 16 -8c0 -1 40 -52 60 -75c11 -12 23 -19 33 -19c8 0 13 4 13 13c0 69 -55 195 -56 196c-5 12 6 22 1 33c-3 8 -11 14 -14 15c-5 -1 -20 -7 -31 -13c-4 -2 -8 -3 -13 -2c-34 6 -70 9 -105 9c-59 0 -98 -9 -98 -9c-5 -1 -11 0 -15 2c-11 6 -25 12 -30 13 c-6 -3 -20 -17 -13 -31c3 -5 2 -12 0 -17c-1 -1 -56 -127 -56 -196z"/>
    <glyph glyph-name="glyph39" unicode="&#57401;" d="M232 267c0 -10 -9 -19 -19 -19h-193c-10 0 -19 9 -19 19c0 117 95 212 212 212c10 0 19 -8 19 -19v-193zM194 286v154c-81 -9 -145 -73 -154 -154h154zM283 445c123 0 228 -109 228 -238c0 -131 -107 -238 -238 -238s-238 102 -238 228c0 12 10 22 22 22h204v204 c0 12 10 22 22 22zM273 13c107 0 194 87 194 194c0 98 -72 181 -162 193v-203c0 -12 -10 -22 -22 -22h-203c11 -91 94 -162 193 -162z"/>
    <glyph glyph-name="glyph40" unicode="&#57408;" d="M490 362c24 -54 13 -113 -29 -160c-101 -113 -191 -193 -192 -194c-4 -4 -9 -6 -14 -6s-11 2 -15 6c-1 1 -90 81 -191 194c-42 47 -53 106 -29 160c23 52 73 86 126 86c54 0 89 -24 109 -50c20 26 55 50 109 50c53 0 103 -34 126 -86zM429 231c30 34 38 75 21 113 c-16 36 -50 60 -86 60c-72 0 -87 -56 -88 -58c-2 -10 -11 -16 -21 -16s-19 6 -21 16c-2 6 -18 58 -88 58c-36 0 -70 -24 -86 -60c-17 -38 -9 -79 21 -113c76 -84 145 -151 174 -178c29 27 98 94 174 178zM363 381c22 -3 64 -24 68 -83c1 -12 -8 -23 -21 -23 c-11 0 -21 8 -22 20c-3 38 -30 43 -31 43c-12 2 -20 12 -18 24s12 21 24 19zM362 243c0 12 9 22 21 22s22 -10 22 -22s-10 -21 -22 -21s-21 9 -21 21z"/>
    <glyph glyph-name="glyph41" unicode="&#57409;" d="M423 410c44 -45 68 -104 68 -167l-1 -141c0 -11 -10 -21 -21 -21v0c-12 0 -21 9 -21 21l1 141c0 52 -19 100 -55 137c-37 37 -86 58 -139 58c-106 0 -192 -86 -193 -192l-2 -141c0 -12 -9 -21 -20 -21h-1c-12 0 -20 9 -20 21l1 141c1 130 107 235 237 234 c63 0 122 -25 166 -70zM331 241c46 0 69 -19 80 -34c12 -17 12 -34 12 -36l-1 -132c0 -24 -20 -69 -92 -69h-1c-10 0 -18 9 -18 19l1 234c0 10 9 18 19 18v0zM386 40l1 131c0 5 -3 26 -38 32l-2 -195c35 5 39 27 39 32zM184 242c10 0 18 -8 18 -18l-2 -235 c0 -10 -8 -18 -18 -18v0c-46 0 -69 19 -80 34c-12 17 -12 35 -12 37l1 131c0 24 20 69 92 69h1zM164 9l2 195c-35 -5 -39 -26 -39 -31l-1 -132c0 -5 3 -26 38 -32z"/>
    <glyph glyph-name="glyph42" unicode="&#57410;" d="M255 472c136 0 247 -111 247 -247s-111 -247 -247 -247s-247 111 -247 247s111 247 247 247zM255 122c57 0 103 46 103 103s-46 104 -103 104s-104 -47 -104 -104s47 -103 104 -103zM51 225c0 -27 6 -52 15 -75l57 23c-6 16 -10 34 -10 52c0 20 4 39 12 56l-58 23 c-10 -24 -16 -51 -16 -79zM387 277c6 -16 10 -34 10 -52c0 -20 -4 -39 -12 -56l58 -23c10 24 16 51 16 79c0 27 -6 52 -15 75zM432 325c-18 31 -42 57 -73 75l-24 -58c15 -11 29 -24 39 -40zM334 413c-24 10 -51 16 -79 16c-27 0 -52 -6 -75 -15l23 -57c16 6 34 10 52 10 c20 0 39 -4 56 -12zM155 403c-31 -18 -57 -43 -75 -74l58 -24c11 15 24 29 40 39zM77 125c18 -31 43 -57 74 -75l24 59c-15 11 -29 24 -39 40zM176 37c24 -10 51 -16 79 -16c27 0 52 6 75 15l-23 57c-16 -6 -34 -10 -52 -10c-20 0 -39 4 -56 12zM355 48c31 18 57 42 75 73 l-59 24c-11 -15 -24 -29 -40 -39z"/>
    <glyph glyph-name="glyph43" unicode="&#57411;" d="M287 140c10 4 21 0 25 -10s0 -21 -10 -25l-53 -23c-2 -1 -5 -2 -8 -2c-12 0 -21 12 -19 23l25 127l-12 -6c-9 -5 -21 -2 -26 7s-2 21 7 26l49 27c16 9 31 -6 28 -20l-26 -133zM301 347c0 -15 -12 -27 -27 -27s-27 12 -27 27s12 27 27 27s27 -12 27 -27zM255 463 c131 0 237 -107 237 -238s-106 -237 -237 -237s-238 106 -238 237s107 238 238 238zM255 31c107 0 194 87 194 194s-87 194 -194 194s-194 -87 -194 -194s87 -194 194 -194z"/>
    <glyph glyph-name="glyph44" unicode="&#57412;" d="M255 475c14 0 24 -10 24 -24v-94c0 -14 -10 -25 -24 -25s-25 11 -25 25v94c0 14 11 24 25 24zM142 422l55 -76c12 -16 0 -39 -20 -39c-8 0 -14 3 -19 10l-55 76c-8 11 -6 26 5 34s26 6 34 -5zM33 271c-13 4 -20 18 -16 31s18 20 31 16l89 -29c13 -4 20 -18 16 -31 c-3 -10 -14 -17 -24 -17c-3 0 -4 1 -7 2zM153 192c4 -13 -3 -27 -16 -31l-89 -29c-3 -1 -5 -1 -8 -1c-10 0 -20 7 -23 17c-4 13 3 27 16 31l89 29c13 4 27 -3 31 -16zM192 138c11 -8 13 -23 5 -34l-55 -76c-5 -7 -12 -10 -20 -10c-20 0 -31 23 -19 39l55 76c8 11 23 13 34 5 zM255 118c14 0 24 -11 24 -25v-93c0 -14 -10 -25 -24 -25s-25 11 -25 25v93c0 14 11 25 25 25zM352 133l55 -76c12 -16 0 -39 -20 -39c-8 0 -14 3 -19 10l-55 76c-8 11 -6 26 5 34s26 6 34 -5zM477 179c13 -4 20 -18 16 -31c-3 -10 -14 -17 -24 -17c-3 0 -4 0 -7 1l-89 29 c-13 4 -20 18 -16 31s18 20 31 16zM357 258c-4 13 3 27 16 31l89 29c13 4 27 -3 31 -16s-3 -27 -16 -31l-89 -28c-3 -1 -5 -2 -8 -2c-10 0 -20 7 -23 17zM332 307c-20 0 -31 23 -19 39l55 76c8 11 23 13 34 5s13 -23 5 -34l-55 -76c-5 -7 -12 -10 -20 -10z"/>
    <glyph glyph-name="glyph45" unicode="&#57413;" d="M406 296c12 0 22 -9 22 -21v-275c0 -12 -10 -22 -22 -22h-303c-12 0 -21 10 -21 22v275c0 12 9 21 21 21h13c0 34 5 95 42 136c24 27 57 40 97 40s73 -13 97 -40c37 -41 42 -102 42 -136h12zM191 403c-27 -30 -31 -80 -31 -107h190c0 27 -4 77 -31 107 c-15 17 -36 26 -64 26s-49 -9 -64 -26zM385 21v232h-260v-232h260zM283 137l22 -55c3 -8 -4 -15 -11 -15h-78c-7 0 -13 7 -10 15l22 55c-4 6 -10 18 -10 29c0 20 13 41 37 41s38 -21 38 -41c0 -11 -6 -23 -10 -29zM232 89h47l-18 46c-1 4 0 8 2 11s8 13 8 20 c0 0 -1 20 -16 20s-15 -20 -15 -20c0 -7 6 -17 8 -20c3 -3 3 -7 2 -11z"/>
    <glyph glyph-name="glyph46" unicode="&#57414;" d="M255 453c77 0 167 -46 167 -174c0 -124 -146 -269 -152 -275c-4 -4 -9 -7 -15 -7s-11 3 -15 7c-6 6 -152 151 -152 275c0 128 90 174 167 174zM255 51c36 39 123 143 123 228c0 121 -94 130 -123 130s-123 -9 -123 -130c0 -85 87 -189 123 -228zM255 373 c47 0 86 -38 86 -86s-39 -86 -86 -86s-86 38 -86 86c0 47 39 86 86 86zM255 233c29 0 53 25 53 54s-24 53 -53 53s-54 -24 -54 -53s25 -54 54 -54z"/>
    <glyph glyph-name="glyph47" unicode="&#57415;" d="M406 296c12 0 22 -9 22 -21v-275c0 -12 -10 -22 -22 -22h-303c-12 0 -21 10 -21 22v275c0 12 9 21 21 21h13c0 34 5 95 42 136c24 27 57 40 97 40c60 0 103 -29 124 -85c4 -11 -2 -25 -13 -29s-24 2 -28 13c-15 39 -42 58 -83 58c-28 0 -49 -9 -64 -26 c-25 -28 -31 -77 -31 -107h246zM385 21v232h-260v-232h260zM216 67c-7 0 -13 7 -10 15l22 55c-4 6 -10 18 -10 29c0 20 13 41 37 41s38 -21 38 -41c0 -11 -6 -23 -10 -29l22 -55c3 -8 -4 -15 -11 -15h-78zM248 146c3 -3 3 -7 2 -11l-18 -46h47l-18 46c-1 4 0 8 2 11 s8 13 8 20c0 0 -1 20 -16 20s-15 -20 -15 -20c0 -7 6 -17 8 -20z"/>
    <glyph glyph-name="glyph48" unicode="&#57416;" d="M488 373c12 0 23 -10 22 -22v-252c0 -12 -10 -22 -22 -22h-466c-12 0 -22 10 -22 22v252v1c0 12 10 21 22 21h466zM422 330h-334l167 -123zM43 120h424v189l-199 -146c-4 -3 -9 -4 -13 -4s-9 1 -13 4l-199 146v-189z"/>
    <glyph glyph-name="glyph49" unicode="&#57417;" d="M29 10c-11 0 -19 9 -19 19v340c0 7 4 15 11 18l113 52c2 1 5 1 8 1s6 0 8 -1l105 -49l105 49c2 1 5 1 8 1s6 0 8 -1l112 -52c7 -3 11 -11 11 -18v-340c0 -10 -8 -19 -19 -19c-3 0 -5 1 -8 2l-104 48l-105 -48c-2 -1 -5 -2 -8 -2s-6 1 -8 2l-105 48l-105 -48 c-3 -1 -5 -2 -8 -2zM236 59v298l-75 35v-299zM48 357v-298l75 34v299zM274 357v-298l75 34v299zM461 59v298l-74 35v-299z"/>
    <glyph glyph-name="glyph50" unicode="&#57424;" d="M449 341c14 0 25 -11 25 -25v-264c0 -14 -11 -24 -25 -24h-388c-14 0 -25 10 -25 24v264c0 14 11 25 25 25h154l-40 40c-10 10 -10 24 0 34s25 10 35 0l81 -81c5 -5 7 -12 7 -18c0 -7 -2 -12 -7 -17l-81 -82c-5 -5 -12 -7 -18 -7s-12 2 -17 7c-10 10 -10 25 0 35l40 40 h-130v-215h340v215h-59c-14 0 -24 10 -24 24s10 25 24 25h83z"/>
    <glyph glyph-name="glyph51" unicode="&#57425;" d="M357 477c27 0 44 -17 44 -43v-417c0 -26 -17 -44 -44 -44h-204c-27 0 -45 18 -45 44v417c0 26 18 43 45 43h204zM369 17v417c0 7 -2 10 -12 10h-204c-11 0 -12 -4 -12 -10v-417c0 -6 1 -11 12 -11h204c10 0 12 4 12 11zM341 418c6 0 11 -5 11 -11v-310 c0 -6 -5 -11 -11 -11h-173c-6 0 -11 5 -11 11v310c0 6 5 11 11 11h173zM331 108v288h-152v-288h152zM230 47c0 13 12 25 25 25s24 -12 24 -25s-11 -24 -24 -24s-25 11 -25 24z"/>
    <glyph glyph-name="glyph52" unicode="&#57426;" d="M507 123c0 -27 -18 -44 -44 -44h-417c-26 0 -43 17 -43 44v204c0 27 17 45 43 45h417c26 0 44 -18 44 -45v-204zM46 111h417c7 0 11 2 11 12v204c0 11 -5 12 -11 12h-417c-6 0 -10 -1 -10 -12v-204c0 -10 3 -12 10 -12zM448 139c0 -6 -5 -11 -11 -11h-310 c-6 0 -11 5 -11 11v173c0 6 5 11 11 11h310c6 0 11 -5 11 -11v-173zM138 149h288v152h-288v-152zM77 250c13 0 25 -12 25 -25s-12 -24 -25 -24s-24 11 -24 24s11 25 24 25z"/>
    <glyph glyph-name="glyph53" unicode="&#57427;" d="M220 139c-24 0 -48 25 -48 49l2 244c0 24 25 48 49 48l68 -1c24 0 48 -24 48 -48l-2 -245c0 -24 -24 -48 -48 -48h-1zM214 431l-2 -244c0 -2 6 -8 9 -8h67c3 1 9 5 9 8l2 244c0 2 -6 8 -9 8l-67 1c-2 0 -9 -6 -9 -9zM360 5c10 0 18 -7 18 -17s-8 -18 -18 -18v0 c-71 1 -143 1 -214 2c-10 0 -18 8 -18 18s8 17 18 17v0l90 -1v50c0 10 8 18 18 18v0c10 0 17 -8 17 -18v-50zM377 319c10 0 17 -7 17 -17l-1 -151c0 -37 -31 -67 -68 -67h-1l-141 1c-37 0 -67 32 -67 69l1 150c0 10 8 17 18 17v0c10 0 17 -8 17 -18l-1 -150 c0 -18 14 -33 32 -33l142 -1c18 0 33 15 33 33l1 150c0 10 7 17 17 17h1z"/>
    <glyph glyph-name="glyph54" unicode="&#57428;" d="M412 190h-314c-20 0 -35 15 -35 35s15 35 35 35h314c20 0 35 -15 35 -35s-15 -35 -35 -35z"/>
    <glyph glyph-name="glyph55" unicode="&#57429;" d="M306 11c-13 0 -22 11 -22 22v90h-255c-12 0 -21 10 -21 22v272c0 12 9 22 21 22h451c12 0 22 -10 22 -22v-272c0 -12 -10 -22 -22 -22h-69l-89 -104c-4 -5 -10 -8 -16 -8zM459 166v230h-408v-230h255c12 0 21 -9 21 -21v-53l57 67c4 5 11 7 17 7h58zM129 298 c-12 0 -21 10 -21 22s9 22 21 22h156c12 0 22 -10 22 -22s-10 -22 -22 -22h-156zM381 320c0 -12 -10 -22 -22 -22s-22 10 -22 22s10 22 22 22s22 -10 22 -22z"/>
    <glyph glyph-name="glyph56" unicode="&#57430;" d="M78 348c-20 0 -35 15 -35 35s15 36 35 36h353c20 0 36 -16 36 -36s-16 -35 -36 -35h-353zM431 261c20 0 36 -16 36 -36s-16 -35 -36 -35h-353c-20 0 -35 15 -35 35s15 36 35 36h353zM431 102c20 0 36 -15 36 -35s-16 -36 -36 -36h-353c-20 0 -35 16 -35 36s15 35 35 35 h353z"/>
    <glyph glyph-name="glyph57" unicode="&#57431;" d="M441 14h-372c-14 0 -25 11 -25 25v372c0 14 11 25 25 25h372c14 0 25 -11 25 -25v-372c0 -14 -11 -25 -25 -25zM93 63h324v324h-324v-324z"/>
    <glyph glyph-name="glyph58" unicode="&#57432;" d="M431 326h-37c-27 0 -91 -62 -142 -111c-73 -70 -141 -137 -195 -137h-34c-13 0 -23 10 -23 23s10 24 23 24h34c36 0 106 68 163 123c69 66 128 124 174 124h37l-38 38c-9 9 -9 23 0 32s24 9 33 0l77 -77c4 -4 7 -10 7 -16s-3 -13 -7 -17l-77 -77c-5 -5 -10 -7 -16 -7 s-12 2 -17 7c-9 9 -9 24 0 33zM426 195l77 -77c4 -4 7 -11 7 -17s-3 -12 -7 -16l-77 -77c-5 -5 -10 -7 -16 -7s-12 2 -17 7c-9 9 -9 24 0 33l38 37h-37c-36 0 -70 27 -122 75c-9 9 -10 24 -1 33s23 10 32 1c32 -30 69 -62 91 -62h37l-38 37c-9 9 -9 24 0 33s24 9 33 0z M23 326c-13 0 -23 10 -23 23s10 23 23 23h34c40 0 81 -30 130 -74c9 -9 10 -24 1 -33c-5 -5 -11 -7 -17 -7s-12 2 -16 6c-32 29 -71 62 -98 62h-34z"/>
    <glyph glyph-name="glyph59" unicode="&#57433;" d="M453 40c0 -11 -9 -22 -22 -22c-5 0 -9 2 -13 5l-235 185c-5 4 -8 10 -8 17s3 13 8 17l235 185c16 12 35 -1 35 -17v-370zM409 85v280l-177 -140zM81 426c14 0 25 -11 25 -25v-356c0 -14 -11 -25 -25 -25s-24 11 -24 25v356c0 14 10 25 24 25z"/>
    <glyph glyph-name="glyph60" unicode="&#57440;" d="M137 17c-13 0 -22 11 -22 22v372c0 16 20 29 36 17l235 -186c5 -4 9 -10 9 -17s-4 -13 -9 -17l-235 -186c-4 -3 -9 -5 -14 -5zM159 366v-282l179 141z"/>
    <glyph glyph-name="glyph61" unicode="&#57441;" d="M81 18c-13 0 -22 11 -22 22v370c0 16 19 29 35 17l234 -185c5 -4 9 -10 9 -17s-4 -13 -9 -17l-234 -185c-4 -3 -8 -5 -13 -5zM102 85l178 140l-178 140v-280zM427 426c14 0 24 -11 24 -25v-356c0 -14 -10 -25 -24 -25s-25 11 -25 25v356c0 14 11 25 25 25z"/>
    <glyph glyph-name="glyph62" unicode="&#57442;" d="M157 444c18 0 33 -15 33 -33v-372c0 -18 -15 -33 -33 -33s-32 15 -32 33v372c0 18 14 33 32 33zM353 444c18 0 32 -15 32 -33v-372c0 -18 -14 -33 -32 -33s-33 15 -33 33v372c0 18 15 33 33 33z"/>
    <glyph glyph-name="glyph63" unicode="&#57443;" d="M462 440c30 0 48 -18 48 -48v-228c0 -30 -18 -48 -48 -48h-139v-41l49 -40c10 -8 3 -25 -9 -25h-217c-12 0 -19 17 -9 25l48 40v41h-137c-30 0 -48 18 -48 48v228c0 30 18 48 48 48h414zM303 55c-5 2 -8 7 -8 13v48h-82v-48c0 -4 -2 -8 -5 -11l-24 -19h140zM482 164v228 c0 15 -5 20 -20 20h-414c-15 0 -20 -5 -20 -20v-228c0 -15 5 -20 20 -20h414c15 0 20 5 20 20zM452 390c5 0 9 -5 9 -10v-204c0 -5 -4 -9 -9 -9h-396c-5 0 -9 4 -9 9v204c0 5 4 10 9 10h396zM442 186v185h-377v-185h377z"/>
    <glyph glyph-name="glyph64" unicode="&#57444;" d="M486 239c4 -4 6 -9 6 -15s-2 -12 -6 -16l-73 -73c-4 -4 -9 -6 -15 -6s-11 3 -15 7c-9 9 -9 21 0 30l35 36h-141v-141l35 35c8 9 22 9 31 0c9 -8 9 -22 0 -31l-72 -72c-4 -4 -10 -7 -16 -7s-11 3 -15 7l-73 72c-9 8 -9 22 0 31c9 8 22 9 31 0l35 -35v141h-141l35 -36 c9 -9 9 -21 0 -30c-4 -4 -9 -7 -15 -7s-12 2 -16 6l-72 73c-4 4 -7 10 -7 16s3 11 7 15l72 73c9 9 22 9 31 0s9 -22 0 -31l-35 -36h141v144l-35 -35c-8 -9 -22 -9 -31 0s-9 22 0 31l73 72c4 4 9 7 15 7s12 -3 16 -7l72 -72c9 -9 9 -22 0 -31c-4 -4 -9 -6 -15 -6s-12 2 -16 6 l-35 35v-144h141l-35 36c-9 9 -9 22 0 31c8 9 21 9 30 0z"/>
    <glyph glyph-name="glyph65" unicode="&#57445;" d="M412 258c18 0 32 -15 32 -33s-14 -33 -32 -33h-124v-124c0 -18 -15 -32 -33 -32s-33 14 -33 32v124h-124c-18 0 -33 15 -33 33s15 33 33 33h124v124c0 18 15 33 33 33s33 -15 33 -33v-124h124z"/>
    <glyph glyph-name="glyph66" unicode="&#57446;" d="M478 403c30 -26 7 -95 -4 -122c-23 -58 -62 -117 -110 -165c-85 -85 -187 -128 -245 -128c-19 0 -33 4 -42 14l-49 57c-15 16 -14 45 4 60l70 55c8 7 18 11 28 11c12 0 25 -5 31 -15l19 -28c10 3 38 19 89 69c51 51 66 79 69 89l-28 19c-18 13 -20 42 -4 59l55 70 c8 9 21 15 33 15c10 0 20 -4 27 -11zM333 147c96 96 124 205 115 224l-54 48l-54 -68l27 -18c9 -6 14 -17 15 -28c1 -28 -26 -69 -82 -125c-54 -54 -96 -82 -123 -82c-12 0 -24 6 -30 15l-18 27l-67 -54l47 -54c1 0 4 -1 10 -1c41 0 134 36 214 116z"/>
    <glyph glyph-name="glyph67" unicode="&#57447;" d="M506 236c5 -7 5 -15 0 -22c-4 -6 -93 -137 -251 -137s-248 131 -252 137c-5 7 -5 15 0 22c4 6 94 137 252 137s247 -131 251 -137zM255 117c111 0 185 78 209 108c-24 30 -98 108 -209 108s-186 -78 -210 -108c24 -30 99 -108 210 -108zM255 319c30 0 57 -14 75 -38 c33 -44 19 -103 -19 -131c-16 -12 -36 -19 -56 -19c-30 0 -57 14 -75 38c-31 41 -22 100 19 131c16 12 36 19 56 19zM255 161c51 0 83 60 51 102c-12 16 -31 26 -51 26c-14 0 -27 -5 -38 -13c-28 -21 -34 -61 -13 -89c12 -16 31 -26 51 -26zM256 246c0 11 9 21 20 21 s20 -10 20 -21s-9 -20 -20 -20s-20 9 -20 20z"/>
    <glyph glyph-name="glyph68" unicode="&#57448;" d="M488 387c12 0 22 -10 22 -22v-254c0 -12 -10 -21 -22 -21h-85l14 -86v-4c0 -9 -7 -17 -16 -17h-292c-9 0 -18 9 -16 19l13 88h-84c-12 0 -22 9 -22 21v254c0 12 10 22 22 22h111v66c0 7 7 14 14 14h216c7 0 14 -7 14 -14v-66h111zM160 440v-53h190v53h-190zM128 16h254 l-22 144h-210zM467 133v211h-424v-211h70l7 46c1 8 8 14 16 14h238c8 0 15 -6 16 -14l7 -46h70zM118 272c-9 0 -16 7 -16 16s7 16 16 16h52c9 0 16 -7 16 -16s-7 -16 -16 -16h-52z"/>
    <glyph glyph-name="glyph69" unicode="&#57449;" d="M255 10c-118 0 -215 97 -215 215s97 215 215 215s215 -97 215 -215s-97 -215 -215 -215zM255 391c-91 0 -166 -75 -166 -166s75 -166 166 -166s166 75 166 166s-75 166 -166 166z"/>
    <glyph glyph-name="glyph70" unicode="&#57456;" d="M499 450l-2 -331c0 -2 0 -4 -1 -6c-7 -42 -49 -74 -99 -74h-1c-55 0 -99 39 -99 86s45 84 100 84h1c21 0 40 -5 56 -15l1 144l-243 -52l-2 -224c0 -47 -44 -84 -99 -84h-1c-55 0 -99 39 -99 86s44 84 99 84h1c21 0 40 -5 56 -15l2 257c0 10 7 19 17 21l287 61 c14 3 26 -9 26 -22zM111 21c31 0 56 19 56 42s-25 42 -56 42h-1c-31 0 -56 -19 -56 -42s25 -42 56 -42h1zM212 319l243 52l1 53l-243 -52zM397 83c31 0 56 18 56 41s-25 42 -56 42v0c-31 0 -56 -18 -56 -41s25 -42 56 -42v0z"/>
    <glyph glyph-name="glyph71" unicode="&#57457;" d="M490 246c9 -9 9 -23 0 -31c-4 -4 -9 -6 -15 -6s-11 2 -15 6l-205 205l-205 -205c-8 -9 -22 -9 -31 0c-9 8 -9 22 0 31l221 220c4 4 9 6 15 6s11 -2 15 -6zM407 231c12 0 21 -10 21 -22v-209c0 -12 -9 -22 -21 -22h-100c-12 0 -22 10 -22 22v132h-61v-132 c0 -12 -9 -22 -21 -22h-100c-12 0 -22 10 -22 22v209c0 12 10 22 22 22s22 -10 22 -22v-188h56v133c0 12 10 22 22 22h104c12 0 22 -10 22 -22v-133h56v188c0 12 10 22 22 22z"/>
    <glyph glyph-name="glyph72" unicode="&#57458;" d="M253 374c46 0 73 -18 86 -33c18 -20 25 -48 22 -77c-6 -54 -46 -73 -81 -73c-2 0 -4 -1 -5 -1v-14c0 -12 -10 -22 -22 -22s-22 10 -22 22v18c0 18 9 40 49 40c23 0 35 12 38 35c1 8 2 28 -12 43c-11 12 -29 19 -53 19c-49 0 -54 -30 -54 -39c0 -12 -10 -21 -22 -21 s-22 9 -22 21c0 23 18 82 98 82zM226 105c0 15 12 27 27 27s27 -12 27 -27s-12 -27 -27 -27s-27 12 -27 27zM255 463c131 0 237 -107 237 -238s-106 -237 -237 -237s-238 106 -238 237s107 238 238 238zM255 31c107 0 194 87 194 194s-87 194 -194 194s-194 -87 -194 -194 s87 -194 194 -194z"/>
    <glyph glyph-name="glyph73" unicode="&#57459;" d="M441 68c-6 0 -13 3 -16 9c-36 64 -130 73 -183 73h-16v-64c0 -15 -19 -25 -31 -13l-139 139c-7 6 -8 18 0 26l139 139c12 12 31 2 31 -13v-63c72 -3 130 -26 171 -67c62 -62 62 -145 62 -148c0 -9 -7 -18 -18 -18zM95 225l94 -95v37c0 9 8 17 17 18c1 0 14 2 36 2 c45 0 117 -7 169 -43c-19 52 -69 121 -203 121c-10 0 -19 8 -19 18v37z"/>
    <glyph glyph-name="glyph74" unicode="&#57460;" d="M245 73l-139 139c-7 6 -8 18 0 26l139 139c12 12 31 2 31 -13v-63c72 -3 130 -26 171 -67c62 -62 63 -145 63 -148c0 -9 -8 -18 -19 -18c-6 0 -12 3 -15 9c-36 64 -130 73 -183 73h-17v-64c0 -15 -19 -25 -31 -13zM145 225l95 -95v37c0 9 7 17 16 18c1 0 15 2 37 2 c45 0 117 -7 169 -43c-19 52 -70 121 -204 121c-10 0 -18 8 -18 18v37zM44 225l126 -126c7 -7 7 -19 0 -26s-19 -7 -26 0l-139 139c-4 4 -5 8 -5 13s1 9 5 13l139 139c7 7 19 7 26 0s7 -19 0 -26z"/>
    <glyph glyph-name="glyph75" unicode="&#57461;" d="M466 341c14 0 24 -11 24 -25v-264c0 -14 -10 -24 -24 -24h-389c-14 0 -24 10 -24 24s10 25 24 25h364v215h-338l40 -40c10 -10 10 -25 0 -35c-5 -5 -11 -7 -17 -7s-12 2 -17 7l-82 82c-5 5 -7 11 -7 17c0 7 2 13 7 18l82 81c10 10 24 10 34 0s10 -24 0 -34l-40 -40h363z "/>
    <glyph glyph-name="glyph76" unicode="&#57462;" d="M503 199c9 -9 9 -23 0 -32l-69 -69c-4 -4 -10 -7 -16 -7s-12 3 -16 7l-69 69c-9 9 -9 23 0 32s22 9 31 0l32 -32v147h-197c-12 0 -22 11 -22 23s10 22 22 22h219c12 0 22 -10 22 -22v-170l32 32c9 9 22 9 31 0zM311 136c12 0 22 -11 22 -23s-10 -22 -22 -22h-219 c-12 0 -22 10 -22 22v170l-32 -32c-9 -9 -22 -9 -31 0s-9 23 0 32l69 70c4 4 10 6 16 6s12 -2 16 -6l69 -70c9 -9 9 -23 0 -32c-4 -4 -10 -6 -16 -6s-11 2 -15 6l-32 32v-147h197z"/>
    <glyph glyph-name="glyph77" unicode="&#57463;" d="M315 444c86 0 157 -70 157 -156s-71 -157 -157 -157c-33 0 -64 10 -89 28l-146 -146c-5 -5 -12 -7 -18 -7s-12 2 -17 7c-10 10 -10 25 0 35l145 145c-20 26 -31 59 -31 95c0 86 70 156 156 156zM315 175c62 0 113 51 113 113s-51 113 -113 113s-113 -51 -113 -113 s51 -113 113 -113zM347 366c21 -9 56 -37 50 -81c-1 -11 -10 -19 -21 -19c-14 0 -24 12 -22 25c3 22 -23 34 -24 35c-11 5 -16 18 -11 29s17 16 28 11zM320 234c0 12 10 22 22 22s22 -10 22 -22s-10 -21 -22 -21s-22 9 -22 21z"/>
    <glyph glyph-name="glyph78" unicode="&#57464;" d="M178 434c26 0 48 -22 48 -48v-84c0 -26 -22 -48 -48 -48h-113c-26 0 -48 22 -48 48v84c0 26 22 48 48 48h113zM182 302v84c0 2 -2 4 -4 4h-113c-2 0 -4 -2 -4 -4v-84c0 -2 2 -4 4 -4h113c2 0 4 2 4 4zM444 434c26 0 48 -22 48 -48v-84c0 -26 -22 -48 -48 -48h-112 c-26 0 -48 22 -48 48v84c0 26 22 48 48 48h112zM449 302v84c0 2 -3 4 -5 4h-112c-2 0 -4 -2 -4 -4v-84c0 -2 2 -4 4 -4h112c2 0 5 2 5 4zM178 196c26 0 48 -22 48 -48v-83c0 -26 -22 -48 -48 -48h-113c-26 0 -48 22 -48 48v83c0 26 22 48 48 48h113zM182 65v83 c0 2 -2 4 -4 4h-113c-2 0 -4 -2 -4 -4v-83c0 -2 2 -5 4 -5h113c2 0 4 3 4 5zM444 196c26 0 48 -22 48 -48v-83c0 -26 -22 -48 -48 -48h-112c-26 0 -48 22 -48 48v83c0 26 22 48 48 48h112zM449 65v83c0 2 -3 4 -5 4h-112c-2 0 -4 -2 -4 -4v-83c0 -2 2 -5 4 -5h112 c2 0 5 3 5 5z"/>
    <glyph glyph-name="glyph79" unicode="&#57465;" d="M126 243h-85c-22 0 -41 19 -41 41v53c0 22 19 40 41 40h85c22 0 40 -18 40 -40v-53c0 -22 -18 -41 -40 -41zM42 284h83v52h-83v-52zM469 243h-226c-22 0 -41 19 -41 41v53c0 22 19 40 41 40h226c22 0 41 -18 41 -40v-53c0 -22 -19 -41 -41 -41zM244 284h224v52h-224v-52z M126 73h-85c-22 0 -41 19 -41 41v53c0 22 19 40 41 40h85c22 0 40 -18 40 -40v-53c0 -22 -18 -41 -40 -41zM42 115h83v51h-83v-51zM469 73h-226c-22 0 -41 19 -41 41v53c0 22 19 40 41 40h226c22 0 41 -18 41 -40v-53c0 -22 -19 -41 -41 -41zM244 115h224v51h-224v-51z"/>
    <glyph glyph-name="glyph80" unicode="&#57472;" d="M169 365c-18 0 -33 14 -33 32s15 33 33 33h303c18 0 33 -15 33 -33s-15 -32 -33 -32h-303zM472 258c18 0 33 -15 33 -33s-15 -33 -33 -33h-303c-18 0 -33 15 -33 33s15 33 33 33h303zM472 86c18 0 33 -15 33 -33s-15 -33 -33 -33h-303c-18 0 -33 15 -33 33s15 33 33 33 h303zM5 397c0 19 17 36 36 36s35 -17 35 -36s-16 -35 -35 -35s-36 16 -36 35zM5 225c0 19 17 35 36 35s35 -16 35 -35s-16 -35 -35 -35s-36 16 -36 35zM5 53c0 19 17 35 36 35s35 -16 35 -35s-16 -36 -35 -36s-36 17 -36 36z"/>
    <glyph glyph-name="glyph81" unicode="&#57473;" d="M464 183c15 0 27 -12 27 -27v-147c0 -15 -12 -27 -27 -27h-418c-15 0 -28 12 -28 27v147c0 15 13 27 28 27s27 -12 27 -27v-119h364v119c0 15 12 27 27 27zM164 312c-11 -11 -27 -11 -38 0s-11 27 0 38l110 110c5 5 12 8 19 8s14 -3 19 -8l110 -110c11 -11 11 -27 0 -38 c-5 -5 -12 -8 -19 -8s-15 3 -20 8l-63 63v-234c0 -15 -12 -27 -27 -27s-27 12 -27 27v234z"/>
    <glyph glyph-name="glyph82" unicode="&#57474;" d="M198 175c-65 0 -117 52 -117 117s52 117 117 117s117 -52 117 -117s-52 -117 -117 -117zM198 369c-42 0 -77 -35 -77 -77s35 -76 77 -76s76 34 76 76s-34 77 -76 77zM251 171c34 -11 144 -51 144 -110c0 -11 -9 -20 -20 -20h-355c-11 0 -20 9 -20 20c0 59 110 99 144 110 c7 2 14 0 19 -4l35 -29l34 29c5 4 12 6 19 4zM55 81h286c-19 16 -55 36 -91 48l-39 -33c-8 -6 -18 -6 -26 0l-39 33c-36 -12 -72 -32 -91 -48zM441 172c7 -3 69 -35 69 -77c0 -8 -7 -16 -15 -16h-76c-8 0 -15 8 -15 16s7 15 15 15h54c-11 14 -33 29 -45 35 c-8 4 -11 12 -7 20s12 11 20 7zM366 198c26 0 47 21 47 47s-21 46 -47 46c-6 0 -12 -2 -18 -4c-8 -3 -17 1 -20 9c-8 20 22 25 38 25c42 0 77 -34 77 -76s-35 -77 -77 -77c-21 0 -39 7 -54 22c-6 6 -6 16 0 22s15 6 21 0c9 -9 21 -14 33 -14z"/>
    <glyph glyph-name="glyph83" unicode="&#57475;" d="M399 332c12 0 22 -10 22 -22v-297c0 -12 -10 -21 -22 -21h-288c-12 0 -22 9 -22 21v297c0 12 10 22 22 22s21 -10 21 -22v-275h245v275c0 12 10 22 22 22zM453 402c12 0 22 -10 22 -22s-10 -21 -22 -21h-396c-12 0 -22 9 -22 21s10 22 22 22h130v43c0 8 5 13 13 13h110 c8 0 13 -5 13 -13v-43h130zM214 431v-29h82v29h-82zM203 81c0 -8 -6 -14 -14 -14s-13 6 -13 14v214c0 8 5 14 13 14s14 -6 14 -14v-214zM269 80c0 -8 -6 -13 -14 -13s-14 5 -14 13v215c0 8 6 13 14 13s14 -5 14 -13v-215zM333 80c0 -8 -5 -14 -13 -14s-14 6 -14 14v214 c0 8 6 14 14 14s13 -6 13 -14v-214z"/>
    <glyph glyph-name="glyph84" unicode="&#57476;" d="M255 165c-80 0 -145 65 -145 145s65 145 145 145s145 -65 145 -145s-65 -145 -145 -145zM255 412c-56 0 -101 -46 -101 -102s45 -101 101 -101s101 45 101 101s-45 102 -101 102zM322 152c30 -10 180 -61 180 -135c0 -12 -10 -22 -22 -22h-451c-12 0 -21 10 -21 22 c0 74 150 125 180 135c7 2 15 1 21 -4l46 -39l46 39c6 5 14 6 21 4zM63 39h384c-24 25 -80 52 -127 68l-51 -43c-8 -7 -20 -7 -28 0l-51 43c-47 -16 -103 -43 -127 -68z"/>
    <glyph glyph-name="glyph85" unicode="&#57477;" d="M495 221c4 -27 -9 -54 -37 -75c-24 -67 -57 -146 -82 -160c-6 -3 -17 -8 -46 -8c-55 0 -166 19 -197 41c-6 4 -9 10 -9 17v210c0 7 3 13 8 17c2 1 39 30 78 52c52 29 87 67 94 88c10 28 17 69 62 69c21 0 37 -12 46 -32c14 -33 7 -90 -32 -146c21 -5 48 -11 63 -16 c29 -9 48 -31 52 -57zM427 178c17 12 27 25 25 37c-1 9 -9 18 -22 22c-27 8 -92 23 -93 23c-15 3 -23 23 -11 36c48 52 56 106 47 127c-3 6 -5 6 -7 6c-6 0 -8 0 -17 -27c-1 -4 -2 -9 -3 -13c-12 -36 -59 -80 -115 -112c-25 -14 -50 -32 -63 -42v-186 c30 -12 110 -28 162 -28c16 0 22 2 24 3c12 12 43 83 65 143c2 4 4 8 8 11zM49 284c20 0 36 -15 36 -35v-215c0 -20 -16 -35 -36 -35s-35 15 -35 35v215c0 20 15 35 35 35z"/>
    <glyph glyph-name="glyph86" unicode="&#57478;" d="M15 229c-4 27 9 54 37 75c24 67 57 146 82 160c6 3 17 8 46 8c55 0 165 -18 196 -40c6 -4 10 -11 10 -18v-210c0 -7 -4 -13 -9 -17c-2 -1 -38 -30 -77 -52c-52 -29 -87 -67 -94 -88c-10 -28 -17 -69 -62 -69c-21 0 -38 12 -47 32c-14 33 -7 90 32 146 c-21 5 -47 11 -62 16c-29 9 -48 31 -52 57zM82 272c-17 -12 -26 -25 -24 -37c1 -9 9 -17 22 -21c27 -8 92 -24 93 -24c15 -3 23 -23 11 -36c-48 -52 -56 -105 -47 -126c3 -6 5 -7 7 -7c6 0 7 1 16 28c1 4 3 8 4 12c12 36 59 80 115 112c25 14 50 32 63 42v186 c-30 12 -110 28 -162 28c-16 0 -22 -1 -24 -2c-12 -12 -43 -84 -65 -144c-2 -4 -5 -8 -9 -11zM461 166c-20 0 -36 16 -36 36v214c0 20 16 35 36 35s35 -15 35 -35v-214c0 -20 -15 -36 -35 -36z"/>
    <glyph glyph-name="glyph87" unicode="&#57479;" d="M407 477c26 0 42 -16 42 -41v-422c0 -25 -16 -41 -42 -41h-304c-26 0 -42 16 -42 41v422c0 25 16 41 42 41h304zM417 14v422c0 5 0 8 -10 8h-304c-10 0 -10 -3 -10 -8v-422c0 -5 0 -8 10 -8h304c10 0 10 3 10 8zM385 418c6 0 11 -5 11 -11v-329c0 -6 -5 -11 -11 -11h-260 c-6 0 -11 5 -11 11v329c0 6 5 11 11 11h260zM374 89v307h-238v-307h238zM255 17c-10 0 -19 9 -19 19c0 5 1 9 5 13c7 7 20 7 27 0c4 -4 6 -8 6 -13c0 -10 -9 -19 -19 -19z"/>
    <glyph glyph-name="glyph88" unicode="&#57480;" d="M507 73c0 -26 -16 -42 -41 -42h-422c-25 0 -41 16 -41 42v304c0 26 16 42 41 42h422c25 0 41 -16 41 -42v-304zM44 63h422c5 0 8 0 8 10v304c0 10 -3 10 -8 10h-422c-5 0 -8 0 -8 -10v-304c0 -10 3 -10 8 -10zM448 95c0 -6 -5 -11 -11 -11h-329c-6 0 -11 5 -11 11v260 c0 6 5 11 11 11h329c6 0 11 -5 11 -11v-260zM119 106h307v238h-307v-238zM47 225c0 10 9 19 19 19c5 0 9 -1 13 -5c7 -7 7 -20 0 -27c-4 -4 -8 -6 -13 -6c-10 0 -19 9 -19 19z"/>
    <glyph glyph-name="glyph89" unicode="&#57481;" d="M477 365c13 0 23 -11 23 -24v-232c0 -13 -10 -23 -23 -23h-312c-6 0 -11 1 -15 5l-132 117c-5 4 -8 10 -8 17s3 13 8 17l132 117c4 4 9 6 15 6h312zM454 132v186h-280l-106 -93l106 -93h280zM174 192c-18 0 -33 15 -33 33s15 33 33 33s34 -15 34 -33s-16 -33 -34 -33z "/>
    <glyph glyph-name="glyph90" unicode="&#57488;" d="M394 -11c-4 0 -8 1 -12 3l-127 83l-128 -83c-8 -5 -17 -4 -24 1s-10 15 -8 24l40 141l-120 101c-15 13 -5 37 13 38l143 11l64 141c4 8 11 12 20 12s16 -4 20 -12l64 -141l143 -11c18 -1 27 -25 12 -38l-119 -101l40 -141c4 -13 -6 -28 -21 -28zM255 123c4 0 8 -2 12 -4 l91 -59l-28 100c-2 8 -1 16 6 22l90 76l-103 7c-8 1 -15 6 -18 13l-50 109l-50 -109c-3 -7 -10 -12 -18 -13l-103 -7l89 -76c7 -6 9 -14 7 -22l-28 -100l91 59c4 2 8 4 12 4z"/>
    <glyph glyph-name="glyph91" unicode="&#57489;" d="M222 15c0 -11 -8 -22 -21 -22c-6 0 -11 2 -15 6l-110 110h-55c-12 0 -21 10 -21 22v188c0 12 9 22 21 22h55l110 110c14 14 36 2 36 -15v-421zM180 66v318l-80 -80c-4 -4 -9 -6 -15 -6h-42v-146h42c6 0 11 -2 15 -6zM294 318c29 -32 66 -112 0 -186c-4 -5 -10 -7 -16 -7 c-17 0 -29 21 -16 35c58 64 2 127 0 130c-8 9 -7 22 2 30s22 7 30 -2zM361 378c1 -2 135 -154 0 -305c-4 -5 -9 -8 -15 -8c-17 0 -29 22 -16 36c110 123 5 243 0 248c-8 9 -8 22 1 30s22 8 30 -1zM498 300c20 -68 25 -170 -66 -272c-4 -5 -10 -7 -16 -7c-17 0 -29 22 -16 36 c63 70 82 148 57 231c-19 63 -57 106 -57 106c-8 9 -7 22 2 30s22 7 30 -2c2 -2 44 -50 66 -122z"/>
    <glyph glyph-name="glyph92" unicode="&#57490;" d="M355 9c0 -11 -8 -21 -21 -21c-6 0 -12 2 -16 6l-112 113h-52l-76 -76c-4 -4 -9 -6 -15 -6s-11 2 -15 6c-9 9 -9 22 0 31l80 80v180c0 12 10 22 22 22h56l112 112c14 14 37 3 37 -15v-71l77 76c8 9 21 9 30 0s9 -22 0 -31l-107 -107v-299zM171 300v-114l141 140v62 l-82 -82c-4 -4 -9 -6 -15 -6h-44zM312 62v203l-114 -115h17c6 0 11 -2 15 -6z"/>
    <glyph glyph-name="glyph93" unicode="&#57491;" d="M493 47c3 -4 4 -8 4 -13c0 -12 -9 -22 -21 -22h-442c-14 0 -29 16 -19 33l221 382c4 7 11 11 19 11s15 -4 19 -11zM72 56h366l-183 317zM233 275c0 12 10 22 22 22s22 -10 22 -22v-97c0 -12 -10 -22 -22 -22s-22 10 -22 22v97zM228 110c0 15 12 27 27 27s27 -12 27 -27 s-12 -28 -27 -28s-27 13 -27 28z"/>
    <glyph glyph-name="glyph94" unicode="&#57492;" d="M480 427c12 0 22 -10 22 -22v-360c0 -12 -10 -22 -22 -22h-451c-12 0 -21 10 -21 22v360c0 12 9 22 21 22h451zM459 333v51h-158v-51h158zM129 333h59v51h-59v-51zM215 384v-51h59v51h-59zM102 384h-51v-51h51v51zM51 67h408v233h-408v-233z"/>
  </font>
</defs>
</svg>
